#TITLE:Flower;
#SUBTITLE:Expi3nze;
#ARTIST:TeRRa;
#TITLETRANSLIT:;
#SUBTITLETRANSLIT:;
#ARTISTTRANSLIT:;
#CREDIT:;
#BANNER:bn.png;
#BACKGROUND:bg.png;
#LYRICSPATH:;
#CDTITLE:;
#MUSIC:HANA RANMAN (Flowers) saimoe 2007.mp3;
#OFFSET:-0.060;
#SAMPLESTART:35.611;
#SAMPLELENGTH:15.620;
#SELECTABLE:YES;
#BPMS:0.000=160.005,1.000=159.995,2.000=160.005,3.000=159.995,4.000=160.005,5.000=159.995,6.000=160.005,7.000=159.995,8.000=160.005,9.000=159.995,10.000=160.005,11.000=159.995,12.000=160.005,13.000=159.995,14.000=160.005,15.000=159.995,16.000=160.005,17.000=159.995,18.000=160.005,19.000=159.995,20.000=160.005,21.000=159.995,22.000=160.005,23.000=159.995,24.000=160.005,25.000=159.995,26.000=160.005,27.000=159.995,28.000=160.005,29.000=159.995,30.000=160.005,31.000=159.995,32.000=160.005,33.000=159.995,34.000=160.005,35.000=159.995,36.000=160.005,37.000=159.995,38.000=160.005,39.000=159.995,40.000=160.005,41.000=159.995,42.000=160.005,43.000=159.995,44.000=160.005,45.000=159.995,46.000=160.005,47.000=159.995,48.000=160.005,49.000=159.995,50.000=160.005,51.000=159.995,52.000=160.005,53.000=159.995,54.000=160.005,55.000=159.995,56.000=160.005,57.000=159.995,58.000=160.005,59.000=159.995,60.000=160.005,61.000=159.995,62.000=160.005,63.000=159.995,64.000=160.005,65.000=159.995,66.000=160.005,67.000=159.995,68.000=160.005,69.000=159.995,70.000=160.005,71.000=159.995,72.000=160.005,73.000=159.995,74.000=160.005,75.000=159.995,76.000=160.005,77.000=159.995,78.000=160.005,79.000=159.995,80.000=160.005,81.000=159.995,82.000=160.005,83.000=159.995,84.000=160.005,85.000=159.995,86.000=160.005,87.000=159.995,88.000=160.005,89.000=159.995,90.000=160.005,91.000=159.995,92.000=160.005,93.000=159.995,94.000=160.005,95.000=159.995,96.000=160.005,97.000=159.995,98.000=160.005,99.000=159.995,100.000=160.005,101.000=159.995,102.000=160.005,103.000=159.995,104.000=160.005,105.000=159.995,106.000=160.005,107.000=159.995,108.000=160.005,109.000=159.995,110.000=160.005,111.000=159.995,112.000=160.005,113.000=159.995,114.000=160.005,115.000=159.995,116.000=160.005,117.000=159.995,118.000=160.005,119.000=159.995,120.000=160.005,121.000=159.995,122.000=160.005,123.000=159.995,124.000=160.005,125.000=159.995,126.000=160.005,127.000=159.995,128.000=160.005,129.000=159.995,130.000=160.005,131.000=159.995,132.000=160.005,133.000=159.995,134.000=160.005,135.000=159.995,136.000=160.005,137.000=159.995,138.000=160.005,139.000=159.995,140.000=160.005,141.000=159.995,142.000=160.005,143.000=159.995,144.000=160.005,145.000=159.995,146.000=160.005,147.000=159.995,148.000=160.005,149.000=159.995,150.000=160.005,151.000=159.995,152.000=160.005,153.000=159.995,154.000=160.005,155.000=159.995,156.000=160.005,157.000=159.995,158.000=160.005,159.000=159.995,160.000=160.005,161.000=80.000,163.000=160.005,164.000=159.995,165.000=160.005,166.000=159.995,167.000=160.005,168.000=159.995,169.000=160.005,170.000=159.995,171.000=160.005,172.000=159.995,173.000=160.005,174.000=159.995,175.000=160.005,176.000=159.995,177.000=160.005,178.000=159.995,179.000=160.005,180.000=159.995,181.000=160.005,182.000=159.995,183.000=160.005,184.000=159.995,185.000=160.005,186.000=159.995,187.000=160.005,188.000=159.995,189.000=160.005,190.000=159.995,191.000=160.005,192.000=159.995,193.000=160.005,194.000=159.995,195.000=160.005,196.000=159.995,197.000=160.005,198.000=159.995,199.000=160.005,200.000=159.995,201.000=160.005,202.000=159.995,203.000=160.005,204.000=159.995,205.000=160.005,206.000=159.995,207.000=160.005,208.000=159.995,209.000=160.005,210.000=159.995,211.000=160.005,212.000=159.995,213.000=160.005,214.000=159.995,215.000=160.005,216.000=159.995,217.000=160.005,218.000=159.995,219.000=160.005,220.000=159.995,221.000=160.005,222.000=159.995,223.000=160.005,224.000=159.995,225.000=160.005,226.000=159.995,227.000=160.005,228.000=159.995,229.000=160.005,230.000=159.995,231.000=160.005,232.000=159.995,233.000=160.005,234.000=159.995,235.000=160.005,236.000=159.995,237.000=160.005,238.000=159.995,239.000=160.005,240.000=159.995,241.000=160.005,242.000=159.995,243.000=160.005,244.000=159.995,245.000=160.005,246.000=159.995,247.000=160.005,248.000=159.995,249.000=160.005,250.000=159.995,251.000=160.005,252.000=159.995,253.000=160.005,254.000=159.995,255.000=160.005,256.000=159.995,257.000=160.005,258.000=159.995,259.000=160.005,260.000=159.995,261.000=160.005,262.000=159.995,263.000=160.005,264.000=159.995,265.000=160.005,266.000=159.995,267.000=160.005,268.000=159.995,269.000=160.005,270.000=159.995,271.000=160.005,272.000=159.995,273.000=160.005;
#STOPS:;
#BGCHANGES:;
// cache tags:
#FIRSTBEAT:0.000;
#LASTBEAT:265.000;
#SONGFILENAME:Songs/SDO pack 1/Flower-TeRRa/HANA RANMAN (Flowers) saimoe 2007.sm;
#HASMUSIC:1;
#HASBANNER:1;
#MUSICLENGTH:103.949;
// end cache tags

//---------------dance-single - ----------------
#NOTES:
     dance-single:
     :
     Hard:
     15:
     1.000,1.000,1.000,0.404,0.519,554.000,237.000,42.000,0.000,30.000:
1100
0010
1002
0000
0023
0000
0231
0000
,
2301
3201
0320
1230
,
0000
0300
1002
0000
1023
0000
0231
0000
,
2310
0000
0000
0000
0000
0000
3000
0000
0000
0000
0000
0000
1000
0000
0000
0000
0000
0000
1000
0000
0100
0000
0010
0000
0001
0000
0000
0100
0000
0000
0001
0000
0000
0100
0000
0000
0010
0000
0000
1000
0000
0000
0010
0000
0000
1000
0000
0000
,
0221
0000
1331
0100
1010
0001
1010
0001
,
1100
0001
1100
0001
1010
0001
1100
0001
,
1010
0100
1001
0100
1010
0001
1010
0001
,
1100
0000
0001
0000
1010
0000
0001
0000
1100
0000
0010
0000
1001
0000
0010
0100
,
1001
0000
0010
0100
1011
0000
0010
0010
1100
0000
0010
0000
1100
0000
0010
0010
,
1100
0000
0010
0000
1100
0000
0001
0001
1100
0000
0001
0000
1100
0000
0001
0001
,
1100
0000
0001
0000
1010
0000
0100
0100
1010
0000
0100
0000
1010
0000
0100
0100
,
1010
0000
0100
0000
1001
0000
0010
0010
1001
0000
0010
0000
1001
0100
0010
0001
,
1010
0100
1010
0001
1100
0000
0010
0010
1100
0000
0010
0000
1100
0000
0010
0010
,
1100
0000
0010
0000
1100
0000
0001
0001
1100
0000
0001
0000
1010
0001
0100
0010
,
1001
0100
0001
0010
1001
0000
0100
0100
1001
0000
0100
0000
1001
0000
0100
0100
,
1001
0000
0100
0000
1010
0000
0001
0001
1010
0000
0001
0000
1100
0010
1001
0010
,
1001
0100
1010
0001
1100
0010
0001
0010
1200
0000
0310
0001
1010
0001
0200
0000
,
1310
0001
0010
0100
1001
0010
0001
0100
1001
0010
0001
0100
1010
0001
0100
0000
,
1002
0000
0000
0000
1103
0010
0001
0100
1020
0000
0130
0001
1010
0001
0200
0000
,
1310
0001
0100
0010
1100
0001
0010
0001
1100
0010
0100
0001
1100
0001
0010
0000
,
1002
0000
0010
0100
1013
0100
0001
0010
1002
0000
0103
0010
1001
0100
0020
0000
,
1130
0001
0100
0010
1100
0001
0010
0001
1100
0001
0010
0001
1100
0010
0100
0000
,
1002
0000
0000
0000
1103
0010
0001
0100
1020
0000
0130
0001
1010
0100
0020
0000
,
0131
1000
0100
1000
0101
0000
0000
0000
0202
0000
0000
0000
0000
0000
0313
1000
,
0102
0000
0113
0000
0110
1001
0110
0000
,
1000
0000
0100
0000
0010
0000
0000
0100
0010
0000
0001
0000
0010
0000
0000
0000
,
0110
1001
0110
0000
0110
1001
0110
0000
,
1000
0000
0100
0000
0010
0000
0000
0100
0010
0000
0001
0000
0010
0000
0000
0000
,
0110
1001
0110
0000
0110
1001
0110
0000
,
1000
0000
0100
0000
0010
0000
0000
0100
0010
0000
0001
0000
0100
0000
0000
0000
,
0110
1001
0110
0000
0110
1001
0110
0000
,
1000
0000
0100
0000
0010
0000
0000
0101
1010
0000
1100
0000
0011
0000
0000
0000
,
1001
0100
0010
0100
1002
0000
0000
0000
0000
0000
0000
0000
0023
0000
0000
0000
,
0000
0000
0000
0001
1230
0000
0000
0000
1000
0000
0000
0000
1000
0000
0000
0000
,
0000
0000
0000
1000
1320
0000
0000
0000
0000
0000
0000
0000
1032
0000
0000
0000
,
0023
0000
0000
0000
1230
0000
0000
0000
0001
0000
0000
0000
0001
0000
1000
0001
,
0010
0000
0001
0001
1320
0000
0000
0000
1130
0000
0010
0000
1002
0000
0000
0000
,
1103
0010
1100
0001
1010
0100
1020
0000
,
1130
0010
1002
0000
1103
0010
1002
0000
,
1103
0010
1100
0001
1010
0100
1001
0000
,
0011
0100
1000
0100
0022
0000
0000
0000
0000
0000
0000
0033
1000
0000
0100
0000
,
0001
0010
0100
1000
0100
0010
1000
0100
,
0001
0010
0100
1000
0100
0010
1000
0100
,
0001
0010
0100
1000
0100
0010
1000
0100
,
0001
0000
0010
0000
0100
0000
1000
0000
0100
0000
1010
1000
1001
0000
0000
0000
,
1100
0000
0010
0000
1001
0000
0000
0000
1100
0000
0010
0000
1001
0000
0000
0010
,
1001
0001
1010
0000
1100
0010
1001
0000
,
1100
0000
0010
0000
1001
0000
1000
0100
0010
0100
1000
0100
0011
0000
0000
1000
,
0101
1010
0102
0000
1100
0013
1001
0000
,
1100
0000
0010
0000
1001
0000
0000
0000
1100
0000
0010
0000
1001
0000
0000
0100
,
1010
0001
1010
0000
1100
0010
1001
0000
,
1100
0000
0010
0000
1001
0000
0000
0000
1100
0000
0010
0000
1001
0000
0000
0100
,
1010
0001
1010
1000
1100
1010
1001
0000
,
1100
0000
0010
0000
1001
0000
0000
0000
1100
0000
0010
0000
1001
0000
0000
0100
,
1010
0001
1010
0000
1100
0010
1001
0000
,
1100
0000
0010
0000
1001
0000
0000
0000
1100
0000
0010
0000
0001
0010
0100
1000
,
0100
0010
0001
0010
0100
1000
0100
0010
0001
0010
0100
0010
1001
0000
0100
0000
,
1001
0110
1000
0110
1100
0110
1001
0100
,
1001
0110
1000
0110
1100
0110
1001
0100
,
1001
0110
1000
0110
1100
0101
1010
0100
,
1010
0000
0100
0000
0101
0000
0010
0000
0101
1000
0110
0000
1001
0000
0100
0000
,
1001
0110
1000
0110
1100
0110
1001
0100
,
1001
0110
1000
0110
1100
0110
1001
0100
,
1001
0110
1000
0101
1100
0101
1010
0101
,
1010
0000
0000
0000
0011
0100
1001
0100
0011
1000
0110
1000
0101
0000
0000
0000
,
0010
1000
0010
0001
0100
0010
0001
1000
,
0100
0010
0001
0000
0000
0000
0000
0000
;
